<?xml version="1.0" standalone="no"?>
<!DOCTYPE svg PUBLIC "-//W3C//DTD SVG 1.1//EN" "http://www.w3.org/Graphics/SVG/1.1/DTD/svg11.dtd" >
<svg xmlns="http://www.w3.org/2000/svg">
<metadata>Generated by IcoMoon</metadata>
<defs>
<font id="iconfont-shsacademy" horiz-adv-x="1024">
<font-face units-per-em="1024" ascent="960" descent="-64" />
<missing-glyph horiz-adv-x="1024" />
<glyph unicode="&#x20;" horiz-adv-x="512" d="" />
<glyph unicode="&#xe900;" glyph-name="arrow-down" horiz-adv-x="904" d="M451.883-64c16.151 0.632 34.818 7.28 46.59 18.353l384.018 361.412c22.008 24.49 31.093 71.451 5.647 98.824-25.062 26.961-73.667 26.159-98.828-0.7l-269.661-254.118v732.465c0 37.424-30.341 67.765-67.767 67.765s-67.767-30.341-67.767-67.765v-732.465l-269.661 254.118c-23.164 23.124-73.48 27.397-98.828 0.7-25.346-26.69-17.248-75.339 5.649-98.824l384.016-361.412c13.142-12.367 28.561-18.394 46.59-18.353z" />
<glyph unicode="&#xe901;" glyph-name="arrow-left" horiz-adv-x="1161" d="M63.49 447.88c0.64-16.302 7.348-35.141 18.525-47.028l364.8-387.62c24.718-22.212 72.123-31.381 99.75-5.7 27.217 25.295 26.406 74.357-0.71 99.755l-256.5 272.19h739.33c37.773 0 68.4 30.627 68.4 68.403s-30.627 68.403-68.4 68.403h-739.33l256.5 272.19c23.342 23.383 27.655 74.17 0.71 99.755-26.938 25.583-76.046 17.413-99.75-5.703l-364.8-387.618c-12.483-13.263-18.564-28.827-18.525-47.028z" />
<glyph unicode="&#xe902;" glyph-name="arrow-right" horiz-adv-x="1161" d="M1097.092 448.12c-0.64 16.302-7.348 35.141-18.525 47.028l-364.8 387.62c-24.718 22.212-72.123 31.381-99.75 5.7-27.217-25.295-26.406-74.357 0.71-99.755l256.5-272.19h-739.33c-37.773 0-68.4-30.627-68.4-68.403s30.627-68.403 68.4-68.403h739.33l-256.5-272.19c-23.342-23.383-27.655-74.17-0.71-99.755 26.938-25.583 76.046-17.413 99.75 5.703l364.8 387.618c12.483 13.263 18.564 28.827 18.525 47.028z" />
<glyph unicode="&#xe903;" glyph-name="arrow-up" horiz-adv-x="904" d="M451.646 960c-16.151-0.632-34.818-7.28-46.59-18.353l-384.018-361.412c-22.008-24.49-31.093-71.451-5.647-98.824 25.062-26.961 73.667-26.159 98.828 0.7l269.661 254.118v-732.465c0-37.424 30.341-67.765 67.767-67.765s67.767 30.341 67.767 67.765v732.465l269.661-254.118c23.164-23.124 73.48-27.397 98.828-0.7 25.346 26.69 17.248 75.339-5.649 98.824l-384.016 361.412c-13.142 12.367-28.561 18.394-46.59 18.353z" />
<glyph unicode="&#xe904;" glyph-name="arrow2-down" horiz-adv-x="1820" d="M919.791 161.266c18.584 0.735 40.053 8.369 53.602 21.12l441.842 415.821c25.322 28.181 35.777 82.204 6.504 113.709-28.835 31.021-84.754 30.092-113.709-0.806l-384.674-353.527-391.802 353.527c-26.649 26.612-84.538 31.523-113.709 0.806-29.157-30.704-19.839-86.684 6.505-113.709l441.842-415.821c15.117-14.229 32.857-21.165 53.602-21.12z" />
<glyph unicode="&#xe905;" glyph-name="arrow2-left" horiz-adv-x="614" d="M0 447.866c0.717-18.304 8.251-39.46 20.8-52.803l409.6-435.22c27.756-24.942 80.978-35.238 112-6.4 30.556 28.403 29.647 83.489-0.794 112.005l-348.235 378.907 348.235 385.929c26.207 26.253 31.050 83.277 0.794 112.005-30.249 28.726-85.384 19.548-112-6.403l-409.6-435.218c-14.016-14.894-20.846-32.369-20.8-52.803z" />
<glyph unicode="&#xe906;" glyph-name="arrow2-right" horiz-adv-x="614" d="M564.882 448.134c-0.717 18.304-8.251 39.46-20.8 52.803l-409.6 435.22c-27.756 24.942-80.978 35.238-112 6.4-30.556-28.403-29.647-83.489 0.794-112.005l348.235-378.907-348.235-385.929c-26.207-26.253-31.050-83.277-0.794-112.005 30.249-28.726 85.384-19.548 112 6.403l409.6 435.218c14.016 14.894 20.846 32.369 20.8 52.803z" />
<glyph unicode="&#xe907;" glyph-name="arrow2-up" horiz-adv-x="1820" d="M919.516 734.734c-18.584-0.735-40.053-8.369-53.602-21.12l-441.842-415.821c-25.322-28.181-35.777-82.204-6.504-113.709 28.835-31.021 84.754-30.092 113.709 0.806l384.674 353.527 391.802-353.527c26.649-26.612 84.538-31.523 113.709-0.806 29.157 30.704 19.839 86.684-6.505 113.709l-441.842 415.821c-15.117 14.229-32.857 21.165-53.602 21.12z" />
<glyph unicode="&#xe908;" glyph-name="brick" horiz-adv-x="717" d="M705.123 410.157h-49.404v66.783c0 18.922-14.596 33.391-33.684 33.391h-187.509c-19.088 0-33.684-14.47-33.684-33.391v-66.783h-83.088v66.783c0 18.922-14.596 33.391-33.684 33.391h-186.386c-19.088 0-33.684-14.47-33.684-33.391v-66.783h-49.404c-6.737 0-11.228-4.452-11.228-11.13v-447.443c0-6.678 4.491-11.13 11.228-11.13h690.526c6.737 0 11.228 4.452 11.228 11.13v447.443c0 5.565-5.614 11.13-11.228 11.13zM445.754 468.202c0 5.242 3.525 8.737 8.813 8.737h146.303c5.288 0 8.813-3.495 8.813-8.737v-50.673h-163.93v50.673zM108.912 468.202c0 5.242 3.525 8.737 8.813 8.737h146.303c5.288 0 8.813-3.495 8.813-8.737v-50.673h-163.93v50.673zM660.288-17.141h-601.902v169.071h600.892v-169.071h1.010zM660.288 196.563h-601.902v169.071h600.892v-169.071h1.010zM705.123 855.374c5.614 0 11.228-5.565 11.228-11.13v-222.609c0-6.678-4.491-11.13-11.228-11.13h-690.526c-6.737 0-11.228 4.452-11.228 11.13v222.609c0 6.678 4.491 11.13 11.228 11.13h49.404v66.783c0 18.922 14.596 33.391 33.684 33.391h186.386c19.088 0 33.684-14.47 33.684-33.391v-66.783h83.088v66.783c0 18.922 14.596 33.391 33.684 33.391h187.509c19.088 0 33.684-14.47 33.684-33.391v-66.783h49.404zM445.754 913.42v-50.673h163.93v50.673c0 5.242-3.525 8.737-8.813 8.737h-146.303c-5.288 0-8.813-3.495-8.813-8.737zM108.912 913.42v-50.673h163.93v50.673c0 5.242-3.525 8.737-8.813 8.737h-146.303c-5.288 0-8.813-3.495-8.813-8.737zM660.211 641.804h-1.010v180.179h-600.815v-180.179h601.825z" />
<glyph unicode="&#xe909;" glyph-name="calendar" horiz-adv-x="973" d="M183.772 373.65h585.728c20.224 0 36.571 16.347 36.571 36.571s-16.347 36.571-36.571 36.571h-585.728c-20.224 0-36.572-16.347-36.572-36.571s16.384-36.571 36.572-36.571zM183.772 154.222h585.728c20.224 0 36.571 16.347 36.571 36.571s-16.347 36.571-36.571 36.571h-585.728c-20.224 0-36.572-16.347-36.572-36.571s16.384-36.571 36.572-36.571zM402.286 813.714h182.857c20.224 0 36.572 16.347 36.572 36.571s-16.348 36.571-36.572 36.571h-182.857c-20.224 0-36.571-16.347-36.571-36.571s16.347-36.571 36.571-36.571zM858.295 886.857h-53.723c-20.224 0-36.572-16.347-36.572-36.571s16.348-36.571 36.572-36.571h53.723c6.839 0 19.42-13.897 19.42-36.571v-109.714h-804.572v109.714c0 20.187 16.055 36.571 35.804 36.571h73.911c20.224 0 36.571 16.347 36.571 36.571s-16.347 36.571-36.571 36.571h-73.911c-60.087 0-108.946-49.225-108.946-109.714v-731.429c0-60.489 49.225-109.714 109.714-109.714h731.428c60.489 0 109.714 49.225 109.714 109.714v731.429c0 60.489-41.545 109.714-92.562 109.714zM877.714 45.714c0-20.187-16.421-36.571-36.572-36.571h-731.428c-20.151 0-36.572 16.384-36.572 36.571v548.571h804.572v-548.571zM694.857 777.143c20.224 0 36.571 16.347 36.571 36.571v109.714c0 20.224-16.347 36.571-36.571 36.571s-36.572-16.347-36.572-36.571v-109.714c0-20.224 16.348-36.571 36.572-36.571zM292.572 777.143c20.224 0 36.571 16.347 36.571 36.571v109.714c0 20.224-16.347 36.571-36.571 36.571s-36.572-16.347-36.572-36.571v-109.714c0-20.224 16.348-36.571 36.572-36.571z" />
<glyph unicode="&#xe90a;" glyph-name="download" horiz-adv-x="1164" d="M1145.936 42.202c0-59.001-47.201-104.891-104.891-106.202h-936.154c-57.69 0-104.891 47.201-104.891 104.891v215.027h104.891v-215.027h936.154v215.027h104.891v-213.716zM520.522 960h104.891v-607.058l209.782 208.471 74.735-73.424-298.94-297.629c-10.489-10.489-24.912-15.734-36.712-15.734s-26.223 5.245-36.712 15.734l-297.629 297.629 73.424 73.424 207.16-209.782v608.369z" />
<glyph unicode="&#xe90b;" glyph-name="email" horiz-adv-x="1536" d="M1422.222 960h-1365.333c-31.403 0-56.889-25.486-56.889-56.889v-910.222c0-31.403 25.486-56.889 56.889-56.889h1365.333c31.403 0 56.889 25.486 56.889 56.889v910.222c0 31.403-25.486 56.889-56.889 56.889zM1265.095 846.222l-525.54-437.931-525.54 437.931h1051.079zM113.778 49.778v731.876l589.369-491.122c10.524-8.818 23.467-13.198 36.409-13.198s25.884 4.38 36.409 13.198l589.369 491.122v-731.876h-1251.556z" />
<glyph unicode="&#xe90c;" glyph-name="facebook" horiz-adv-x="546" d="M343.882 403.094h156.197l23.387 182.037h-179.584v116.219c0 52.704 14.58 88.617 89.87 88.617l96.032 0.042v162.815c-16.602 2.219-73.608 7.175-139.934 7.175-138.458 0-233.251-84.832-233.251-240.622v-134.246h-156.598v-182.037h156.598v-467.094h187.283v467.094z" />
<glyph unicode="&#xe90d;" glyph-name="index" horiz-adv-x="1067" d="M1000.357-49.778h-991.434c-11.897 0-11.897 64 0 64h991.434c11.897 0 11.897-64 0-64zM14.486 124.486c0 0 145.799 355.412 151.984 356.207 6.219 0.864 65.137-85.075 65.137-85.075s135.561 256.96 142.126 257.824c6.599 0.864 68.339-96.691 68.339-96.691s139.836 306.373 145.399 293.9l143.412-262.668 260.535 358.799c3.351 8.948 35.69-49.825 32.338-58.774 0 0-295.624-409.311-302.672-409.518-6.495-0.242-137.739 264.34-137.739 264.34s-130.459-285.104-136.747-285.622c-6.323-0.622-65.333 93.512-65.333 93.512s-134.56-254.507-140.917-255.509c-6.392-1.002-66.968 86.803-66.968 86.803l-126.763-316.958c-2.729-6.772-35.655 50.585-32.131 59.43zM740.732 113.054l22.452 130.906-95.109 92.708 131.438 19.099 58.781 119.103 58.781-119.103 131.438-19.099-95.109-92.708 22.452-130.906-117.561 61.806-117.561-61.806zM858.293 223.063l60.894-32.014-11.63 67.807 49.265 48.021-68.082 9.893-30.447 61.693-30.447-61.693-68.082-9.893 49.265-48.021-11.63-67.807 60.894 32.014z" />
<glyph unicode="&#xe90e;" glyph-name="magnifier" d="M1008.96 24.907c20.304-20.304 20.37-53.157-0.17-73.697-20.398-20.398-53.763-20.104-73.697-0.17l-260.99 260.99c-163.926-127.576-401.042-116.027-551.716 34.648-163.182 163.182-163.182 427.753 0 590.936s427.753 163.182 590.936 0c150.674-150.674 162.224-387.79 34.648-551.716l260.99-260.99zM657.986 302.014c132.632 132.632 132.632 347.672 0 480.305s-347.672 132.632-480.305 0c-132.632-132.632-132.632-347.672 0-480.305s347.672-132.632 480.305 0z" />
<glyph unicode="&#xe90f;" glyph-name="person" horiz-adv-x="1170" d="M1168.84 63.962c0-2.569-0.321-5.781-0.963-9.635s-2.569-10.919-5.781-21.197c-3.212-10.277-7.708-19.591-13.489-27.941s-14.773-15.737-26.977-22.16c-12.204-6.423-26.656-9.635-43.357-9.635h-626.263c-16.7 0-31.153 3.212-43.357 9.635s-21.197 14.131-26.977 23.124c-5.781 8.993-10.277 17.664-13.489 26.014s-4.817 15.737-4.817 22.16l-1.927 9.635c0 5.139-0.321 11.883-0.963 20.233s-0.642 24.729 0 49.138c0.642 24.408 2.89 48.495 6.744 72.261s11.562 51.064 23.124 81.896c11.562 30.832 26.014 58.451 43.357 82.859s41.751 47.853 73.225 70.334c31.474 22.481 67.765 39.503 108.873 51.064-50.101 53.955-75.152 120.114-75.152 198.477 0 74.51 21.839 138.099 65.517 190.769s96.669 79.005 158.974 79.005c62.305 0 115.296-26.335 158.974-79.005s65.517-116.26 65.517-190.769c0-78.364-25.050-144.522-75.152-198.477 41.109-11.562 77.4-28.583 108.873-51.064s56.203-45.926 74.188-70.334c17.985-24.408 32.437-52.028 43.357-82.859s18.306-58.13 22.16-81.896c3.854-23.766 6.102-47.853 6.744-72.261s0.642-41.108 0-50.101c-0.642-8.992-0.963-15.416-0.963-19.27zM766.105 869.433c-3.854 0-8.992-0.321-15.416-0.964s-17.343-4.175-32.758-10.598c-15.416-6.423-28.904-15.094-40.466-26.014s-22.16-28.904-31.795-53.955c-9.635-25.051-14.452-54.276-14.452-87.677s4.496-62.305 13.489-86.713c8.993-24.408 20.233-42.393 33.722-53.955s26.656-20.554 39.503-26.977c12.846-6.423 23.766-9.635 32.758-9.635l15.416-1.927c2.569 0 7.065 0.321 13.489 0.964s17.343 4.175 32.758 10.598c15.416 6.423 28.904 15.416 40.466 26.977s22.16 29.547 31.795 53.955c9.635 24.408 14.452 53.313 14.452 86.713s-4.496 62.626-13.489 87.677c-8.993 25.051-20.233 43.036-33.722 53.955s-26.656 19.591-39.503 26.014c-12.846 6.423-23.766 10.277-32.758 11.562h-13.489zM765.142 422.377c-48.174 0-91.209-6.744-129.106-20.233s-67.765-30.831-89.604-52.028c-21.839-21.197-40.145-44.32-54.918-69.371s-24.729-50.422-29.868-76.115c-5.139-25.693-8.671-49.137-10.598-70.334s-2.248-38.218-0.963-51.065l1.927-19.27h626.263c1.285 5.139 2.248 11.883 2.89 20.233s0 25.050-1.927 50.101c-1.927 25.051-5.46 48.816-10.598 71.298s-15.094 47.532-29.868 75.152c-14.773 27.62-33.079 51.386-54.918 71.298s-51.707 36.612-89.604 50.101c-37.897 13.489-80.932 20.233-129.106 20.233zM399.982 406.962c-11.562-15.416-23.123-34.043-34.685-55.882-28.262 11.562-59.736 17.343-94.421 17.343-32.116 0-60.699-4.496-85.75-13.489s-44.962-20.554-59.736-34.685c-14.773-14.131-26.977-29.868-36.612-47.211s-16.058-34.685-19.27-52.028c-3.212-17.343-5.46-33.401-6.744-48.174s-1.606-26.656-0.963-35.649l0.963-13.489h248.578c0-19.27 1.285-39.181 3.854-59.736h-252.432c-35.97 0-55.882 18.627-59.736 55.882v3.854c-1.285 7.708-2.248 17.022-2.89 27.941s0.963 30.831 4.817 59.736c3.854 28.905 10.919 55.561 21.197 79.969s28.583 49.137 54.918 74.188c26.335 25.051 58.772 42.714 97.312 52.991-29.547 35.97-44.32 80.29-44.32 132.96 0 51.386 13.489 94.742 40.466 130.070s59.093 52.991 96.348 52.991c37.255 0 69.371-17.664 96.348-52.991s40.466-78.684 40.466-130.070c0-52.671-14.773-96.99-44.32-132.96 12.846-3.854 25.050-7.708 36.612-11.562zM270.876 674.81c-2.569 0-5.46-0.321-8.671-0.964s-9.314-3.212-18.306-7.708c-8.993-4.496-17.021-10.598-24.087-18.306s-13.489-19.912-19.27-36.612c-5.781-16.7-8.671-36.291-8.671-58.772s2.569-42.393 7.708-59.736c5.139-17.343 11.562-29.547 19.27-36.612s15.737-12.846 24.087-17.343c8.35-4.496 15.095-7.387 20.233-8.671h7.708c2.569 0 5.46 0.321 8.671 0.964s9.635 3.212 19.27 7.708c9.635 4.496 17.985 10.277 25.051 17.343s13.168 19.27 18.306 36.612c5.139 17.343 7.708 37.255 7.708 59.736s-2.569 42.072-7.708 58.772c-5.139 16.7-11.562 28.904-19.27 36.612s-15.416 13.81-23.124 18.306c-7.708 4.496-14.773 6.744-21.197 6.744l-7.708 1.927z" />
<glyph unicode="&#xe910;" glyph-name="quote" horiz-adv-x="1434" d="M1433.6 699.277c0-104.542-23.534-199.321-70.601-284.34s-103.941-157.126-170.62-216.325c-70.602-64.236-143.49-118.081-218.668-161.535s-138.261-77.146-189.251-101.078l-58.834 119.026c58.835 30.229 114.4 59.513 166.698 87.852s99.365 60.142 141.203 95.41c41.838 34.008 78.446 73.053 109.824 117.137s56.22 97.613 74.524 160.59h-84.329c-82.369 0-141.529 19.523-177.484 58.568s-53.932 82.499-53.932 130.362c0 60.458 24.187 118.081 72.563 172.871s114.4 82.184 198.076 82.184c88.906 0 154.604-23.931 197.095-71.793s63.737-110.838 63.737-188.93zM707.975 699.277c0-104.542-23.534-199.321-70.601-284.34s-103.941-157.126-170.62-216.325c-70.602-64.236-143.49-118.081-218.668-161.535s-138.261-77.146-189.251-101.078l-58.834 119.026c58.835 30.229 114.4 59.513 166.698 87.852s99.365 60.142 141.203 95.41c41.838 34.008 78.446 73.053 109.824 117.137s56.22 97.613 74.524 160.59h-84.329c-82.369 0-141.529 19.523-177.484 58.568s-53.932 82.499-53.932 130.362c0 60.458 24.187 118.081 72.563 172.871s114.4 82.184 198.076 82.184c88.906 0 154.604-23.931 197.095-71.793s63.737-110.838 63.737-188.93z" />
<glyph unicode="&#xe911;" glyph-name="shs-logo" horiz-adv-x="666" d="M321.774 642.569v317.431h-321.774v-71.71h249.428v-317.427h332.11v-245.721h-332.11v-317.427h-249.428v-71.715h321.774v317.436h332.105v389.133h-332.105z" />
<glyph unicode="&#xe912;" glyph-name="twitter" horiz-adv-x="1297" d="M1260.092 838.797c-46.343-20.561-96.17-34.457-148.454-40.722 53.367 32.009 94.338 82.666 113.635 143.014-49.941-29.633-105.246-51.134-164.158-62.715-47.135 50.232-114.331 81.626-188.68 81.626-142.78 0-258.5-115.734-258.5-258.5 0-20.27 2.262-40.002 6.695-58.912-214.858 10.765-405.342 113.716-532.843 270.096-22.251-38.165-35.001-82.561-35.001-129.944 0-89.699 45.618-168.806 115.004-215.187-42.368 1.322-82.236 12.96-117.099 32.333-0.033-1.088-0.033-2.162-0.033-3.24 0-125.268 89.113-229.731 207.366-253.495-21.673-5.903-44.511-9.038-68.084-9.038-16.678 0-32.844 1.575-48.653 4.614 32.92-102.698 128.365-177.447 241.513-179.542-88.549-69.343-199.994-110.648-321.12-110.648-20.853 0-41.443 1.231-61.68 3.603 114.446-73.351 250.317-116.14 396.318-116.14 475.482 0 735.466 393.909 735.466 735.538 0 11.204-0.248 22.332-0.73 33.412 50.485 36.475 94.314 81.993 128.99 133.843z" />
<glyph unicode="&#xe913;" glyph-name="website" d="M972.616 960c26.153 0 47.348-21.195 47.348-47.348v-326.157c0-26.153-21.195-47.348-47.348-47.348s-47.348 21.195-47.348 47.348v206.606l-459.399-459.41c-9.244-9.244-21.366-13.872-33.475-13.872s-24.231 4.628-33.475 13.872c-18.5 18.489-18.5 48.473 0 66.962l464.652 464.652h-217.124c-26.153 0-47.348 21.195-47.348 47.348s21.195 47.348 47.348 47.348h326.169zM808.844 483.158c26.153 0 47.348-21.206 47.348-47.348v-373.55c0-69.623-56.637-126.26-126.26-126.26h-603.671c-69.623 0-126.26 56.637-126.26 126.26v603.671c0 69.623 56.637 126.26 126.26 126.26h374.869c26.153 0 47.348-21.195 47.348-47.348s-21.195-47.348-47.348-47.348h-374.869c-17.113 0-31.565-14.452-31.565-31.565v-603.671c0-17.113 14.452-31.565 31.565-31.565h603.671c17.113 0 31.565 14.452 31.565 31.565v373.55c0 26.153 21.195 47.348 47.348 47.348z" />
<glyph unicode="&#xe914;" glyph-name="youtub" horiz-adv-x="1365" d="M1109.333 960h-853.333c-140.8 0-256-115.2-256-256v-512c0-140.8 115.2-256 256-256h853.333c140.8 0 256 115.2 256 256v512c0 140.8-115.2 256-256 256zM512 106.667v682.667l426.667-341.333-426.667-341.333z" />
<glyph unicode="&#xe915;" glyph-name="linkedin" horiz-adv-x="1069" d="M1068.522 331.071v-395.071h-229.050v368.581c0 92.576-33.094 155.767-115.994 155.767-63.31 0-100.931-42.548-117.508-83.76-6.025-14.722-7.598-35.187-7.598-55.83v-384.757h-229.094c0 0 3.072 624.299 0 688.929h229.094v-97.621c-0.46-0.757-1.098-1.514-1.499-2.256h1.499v2.256c30.438 46.837 84.755 113.798 206.432 113.798 150.736 0 263.717-98.438 263.717-310.035zM129.618 957.047c-78.373 0-129.618-51.423-129.618-119.021 0-66.144 49.79-119.066 126.605-119.066h1.514c79.887 0 129.558 52.922 129.558 119.066-1.499 67.599-49.671 119.021-128.059 119.021zM13.624-64h228.99v688.929h-228.99v-688.929z" />
</font>
</defs>
</svg>
